18 Haziran 2019, 15:07:33

Gönderen Konu: A Takımı - Sezon 4 - Bölüm 20 - Türkçe Dublaj - Dizi İndir  (Okunma sayısı 77 defa)

Çevrimdışı tetikçi

  • Yönetici
  • Kıdemli Üye
  • *****
  • İleti: 283
  • Karma +1/-0
    • Asayis
    • Profili Görüntüle
                           
www.a-takimi.org
.mp4
TR -(Türkçe Dublaj)
Aksiyon - Macera - Suç
1(420 MB)

kral32700 kullanıcısına emeğinden dolayı Teşekkür Ederiz...


Kod: [Seç]
General
Complete name               : A Takımı - The A Team Sezon 4 Bölüm 20.mp4
Format                      : MPEG-4
Format profile              : Base Media
Codec ID                    : isom (isom/iso2/avc1/mp41)
File size                   : 409 MiB
Duration                    : 46 min 22 s
Overall bit rate            : 1 234 kb/s
Writing application         : Lavf55.37.101

Video
ID                          : 1
Format                      : AVC
Format/Info                 : Advanced Video Codec
Format profile              : Main@L3
Format settings             : CABAC / 4 Ref Frames
Format settings, CABAC      : Yes
Format settings, Reference  : 4 frames
Codec ID                    : avc1
Codec ID/Info               : Advanced Video Coding
Duration                    : 46 min 22 s
Bit rate                    : 1 036 kb/s
Width                       : 720 pixels
Height                      : 576 pixels
Display aspect ratio        : 5:4
Frame rate mode             : Constant
Frame rate                  : 25.000 FPS
Standard                    : PAL
Color space                 : YUV
Chroma subsampling          : 4:2:0
Bit depth                   : 8 bits
Scan type                   : Progressive
Bits/(Pixel*Frame)          : 0.100
Stream size                 : 343 MiB (84%)
Writing library             : x264 core 119
Encoding settings           : cabac=1 / ref=1 / deblock=1:0:0 / analyse=0x1:0x1 / me=dia / subme=1 / psy=1 / psy_rd=1.00:0.00 / mixed_ref=0 / me_range=16 / chroma_me=1 / trellis=0 / 8x8dct=0 / cqm=0 / deadzone=21,11 / fast_pskip=1 / chroma_qp_offset=0 / threads=2 / sliced_threads=0 / nr=0 / decimate=1 / interlaced=0 / bluray_compat=0 / constrained_intra=0 / bframes=3 / b_pyramid=2 / b_adapt=1 / b_bias=0 / direct=1 / weightb=1 / open_gop=0 / weightp=1 / keyint=250 / keyint_min=25 / scenecut=40 / intra_refresh=0 / rc=abr / mbtree=0 / bitrate=1036 / ratetol=1.0 / qcomp=0.60 / qpmin=0 / qpmax=69 / qpstep=4 / ip_ratio=1.40 / pb_ratio=1.30 / aq=1:1.00
Codec configuration box     : avcC

Audio
ID                          : 2
Format                      : AAC LC
Format/Info                 : Advanced Audio Codec Low Complexity
Codec ID                    : mp4a-40-2
Duration                    : 46 min 22 s
Duration_LastFrame          : -2 ms
Bit rate mode               : Constant
Bit rate                    : 192 kb/s
Channel(s)                  : 2 channels
Channel layout              : L R
Sampling rate               : 44.1 kHz
Frame rate                  : 43.066 FPS (1024 SPF)
Compression mode            : Lossy
Stream size                 : 63.7 MiB (16%)
Default                     : Yes
Alternate group             : 1


A Takımı - Sezon 4 - Bölüm 20 - Dizi İndir
« Son Düzenleme: 15 Mayıs 2019, 20:35:01 Gönderen: tetikçi »
Yasaklı Sitelere ve Download Sitelerine Erişmek İçin DNS ayarlarınıızı alttakilerle değiğtirin.
208-67-222-222
208-67-220-220

156.154.70.22
156.154.71.22


Düzenlenmesi Gereken Konular için:
Düzeltilmesi Gereken Uygunsuz Konu ya da Mesajlar

Kırık link Bildirme Merkezi

©Copyright A-Takımı © Since 2012
█║▌│ █║▌ ║││█║█║